Меню

Видеорегистратор AZDOME GS63H год на стекле

Azdome GS63H, типа 4К авторегистратор.

Azdome GS63H, типа 4К авторегистратор.

Писатель

Обновлено: 29 июля 2018

Здравствуйте друзья. Сегодня обзор пока что лучшего, из тех что побывали у меня, автомобильного регистратора GS63H от компании AZDOME.

Приехала посылка ко мне пока я был на отдыхе в Карпатах и пылилась неделю на почте, пока не забрали родные. Запаковано в обычный пакет и коробочке немного досталось, но благодаря толстым стенкам ничего не пострадало. На передней части коробки рисунок регистратора, название модели и ниже логотип бренда Azdome .
Azdome GS63H, типа 4К авторегистратор. 15328737838692519130w.jpg
На задней части модель, адрес и серийный номер устройства. Лаконично и просто.

Azdome GS63H, типа 4К авторегистратор. 153287378220647404650w.jpg
Открываем крышку и видим в поролоновом ложементе сам регистратор и коробочку с аксессуарами.

Azdome GS63H, типа 4К авторегистратор. 15328737883704695300w.jpg

Также под ними обнаружился очень подробный мануал, с русским языком и симпатичная открытка , на обратной стороне которой контакты фирмы в соцсетях.

Azdome GS63H, типа 4К авторегистратор. 153287378414086708020w.jpg


В коробочке с аксессуарами у нас находится :• Клипсы на клейкой основе для крепления кабеля
• Присоска на лобовое стекло
• Зарядное в прикуриватель
• Угловой кабель USB-miniUSB
• Пластиковая стека

Azdome GS63H, типа 4К авторегистратор. 15328737926407326360w.jpgAzdome GS63H, типа 4К авторегистратор. 153287379513479849060w.jpgAzdome GS63H, типа 4К авторегистратор. 153287378411740858410w.jpg

Особенности и характеристики:
• Процессор Novatek NT96660 (встроенный 2 ГБ DDRIII)
• Матрица/сенсор OmniVision OV4689, 1/3″ CMOS
• Разрешение записи: 2880*2160P 24fps, 1920*[email protected], 1920*[email protected], 1280*[email protected], 1280*[email protected], 1280*[email protected],
• [email protected] + [email protected] (двухканальный режим)
• Объектив: светосила F/1.8,
• Угол обзора 150° (диагональ), 107° (по горизонту)
• Кодек сжатия видео H.264
• Дисплей 2.4″ ЖК
• Поддержка HDMI
• G-Сенсор с настройкой чувствительности (три уровня)
• Циклическая запись: 3 / 5 / 10 мин
• Функция обнаружения движения
• Функция мониторинга парковки (по G-сенсору)
• Встроенный Wi-Fi
• Встроенный модуль GPS
• Автоматическое включение/выключение при подаче питания
• Поддержка карт памяти до 64 ГБ
• Аккумулятор встроенный Li-ion 250 mAh (35*28*30)
• Размеры: 74*64*32 мм

Как видим, регистратор основан на одном из топовых чипсетах от Novatek, а именно на NT96660. Этот чипсет позволяет писать видео в 4К в разрешении 3840*[email protected] и востребован в регистраторах и экшн-камерах. Единственное чтобы получить честное 4К видео , должен быть установлен минимум 8Мп сенсор, а здесь только 4Мп OV4689. Поэтому в характеристиках и написано недо-4К разрешение 2880*[email protected] Но качество видео посмотрим в конце.

Вернемся к внешнему виду устройства. Регистратор небольшой всего лишь 7 на 6 см, и в принципе будет не очень заметен в машине, хотя надо не забывать про присоску.

На передней части устройства расположен объектив и отсутствуют ненужные диоды подсветки, все равно от них никакого толку. Логотип , надпись 4К и значок wifi. В верхней части есть наплыв, в котором расположен GPS приемник.

Azdome GS63H, типа 4К авторегистратор. 153287379210155649410w.jpg

На задней части регистратора расположен 2.4 дюймовый дисплей, а под ним кнопки навигации и управления, о функциях напишу ниже.

Azdome GS63H, типа 4К авторегистратор. 153287378314120160050w.jpg
На одной грани устройства расположена кнопка включения устройства, также она выключает дисплей во время работы, и слот для microSD карты.

Azdome GS63H, типа 4К авторегистратор. 15328737893965763370w.jpg

На противоположной стороне разместился miniUSB разъем для питания устройства , а также разъем miniHDMI , для подключения к телевизору например.

Azdome GS63H, типа 4К авторегистратор. 153287378519160419810w.jpg

На верхней грани есть опять же наклейка с серийником и AV-in для подключения камеры заднего вида.

Azdome GS63H, типа 4К авторегистратор. 153287378418758649940w.jpg
Снизу расположилась кнопочка сброса и отверстие микрофона. Также в большом количестве на корпусе расположены вентиляционные отверстия.

Azdome GS63H, типа 4К авторегистратор. 153287379318322460050w.jpg
Функции кнопок:

Azdome GS63H, типа 4К авторегистратор. 153287395613138274760w.png

Основных кнопок управления пять, все находятся под дисплеем. Управление удобное, со звуковым сопровождением нажатия.
1. Вход в Меню Video, двойное нажатие — переход в системное меню Setup
2. Передвижеие по Меню Вверх/Up
4. Передвижеие по Меню Вниз/Down
5. Подтверждение выбора настроек Меню/OK. Старт/Стоп записи. Переключение режимов Видео/Фото/Просмотр
Кнопка 3 в режиме записи включает защиту файла от перезаписи/SOS. В режиме просмотра короткое нажатие включает Wi-Fi, длительное нажатие — режим Парковки.
Кроме того кнопками Вверх/Вниз в режиме просмотра регулируется Увеличение масштаба изображения/Zoom, максимальное значение — 2,9.

Azdome GS63H, типа 4К авторегистратор. 15328739589065972590w.pngAzdome GS63H, типа 4К авторегистратор. 15328739563845115610w.png

Как видно из описания, в регистраторе присутствует wifi модуль и имеется приложение для работы с ним. Приложение скачивается по QR коду с плеймаркета и называется LuckyCam. Подключение очень простое, активируем wifi на регистраторе , в настройках телефона или планшета находим название сети GS63H и подключаемся. Пароль по умолчанию 12345678. Все подсказки есть в самой программе. В дальнейшем программа подключается к регистратору автоматически.

Azdome GS63H, типа 4К авторегистратор. 153287395711346729780w.png

Также в устройстве имеется модуль GPS, то есть можно будет посмотреть весь свой маршрут . Для этого скачиваем по этой ссылке Dash Cam GPS player и пользуемся. Если программа не подгружает Гугл карты, запускаем ее от имени Администратора.

Azdome GS63H, типа 4К авторегистратор. 153287395610915627170w.jpg

Меню у регистратора довольно обширное, делится на два раздела Video и Setup. В первом находятся различные настройки связанные с фото и видеосъемкой, во втором общие настройки регистратора. Ниже приведу фото экранов меню.

Azdome GS63H, типа 4К авторегистратор. 153287405218131962900w.jpgAzdome GS63H, типа 4К авторегистратор. 15328740522465870060w.jpgAzdome GS63H, типа 4К авторегистратор. 15328740507894187950w.jpgAzdome GS63H, типа 4К авторегистратор. 153287405116466055250w.jpgAzdome GS63H, типа 4К авторегистратор. 15328740516270462830w.jpg

Теперь попробуем посмотреть , что все-таки внутри и не обманул ли нас производитель. К сожалению я так и не смог разобрать полностью регистратор, боялся порвать шлейф экрана. И боюсь все равно чип бы мы не увидели, так как он закрыт металлической крышкой. Но частично разобрал, внутри много металлической фольги, медные пластинки, видать чип при работе достаточно греется и сделали все для его охлаждения.

Azdome GS63H, типа 4К авторегистратор. 15328737895270371300w.jpgAzdome GS63H, типа 4К авторегистратор. 15328737874010131750w.jpgAzdome GS63H, типа 4К авторегистратор. 153287379014190563150w.jpgAzdome GS63H, типа 4К авторегистратор. 153287378715325996380w.jpgAzdome GS63H, типа 4К авторегистратор. 153287379314105030720w.jpgAzdome GS63H, типа 4К авторегистратор. 153287378612837538240w.jpg

Так как аккумулятор там небольшой, рассчитан всего на 7 минут автономной работы, то много с ним не побегаешь.
Ну и главное, собственно в регистраторе, это пример видеосъемки. Регистратор записывает файлы на карту памяти в папку MOVIE, которая находится в общей папке NOVATEK. Нестираемые файлы записываются в отдельную папку RO. Нумерация удобная, все файлы нумеруются подряд, если записывается защищенный файл — он получает следующий порядковый номер, только заносится в папку RO, отыскать файлы легко. Вид имени файла: 2017_1022_165750_001 (год_дата_время начала записи файла ччммсс_номер файла).
При подключении к компьютеру предлагается на выбор 2 варианта, съемный диск или вебкамера.

Дневная съемка видео «4К».

General
Complete name : H:\record\2018_0726_073558_011.MP4
Format : MPEG-4
Format profile : Base Media / Version 2
Codec ID : mp42 (isom/avc1/mp42)
File size : 540 MiB
Duration : 3 min 1 s
Overall bit rate : 25.0 Mb/s
Movie_More : DEMO1
Encoded date : UTC 2018-07-26 07:38:56
Tagged date : UTC 2018-07-26 07:38:56
Origin : NOVATEK

Video
ID : 1
Format : AVC
Format/Info : Advanced Video Codec
Format profile : [email protected]
Format settings, CABAC : Yes
Format settings, RefFrames : 1 frame
Format settings, GOP : M=1, N=12
Codec ID : avc1
Codec ID/Info : Advanced Video Coding
Duration : 3 min 1 s
Bit rate : 24.6 Mb/s
Width : 2 880 pixels
Height : 2 160 pixels
Display aspect ratio : 16:9
Frame rate mode : Constant
Frame rate : 24.000 FPS
Color space : YUV
Chroma subsampling : 4:2:0
Bit depth : 8 bits
Scan type : Progressive
Bits/(Pixel*Frame) : 0.165
Stream size : 530 MiB (98%)
Language : English
Encoded date : UTC 2018-07-26 07:38:56
Tagged date : UTC 2018-07-26 07:38:56

Audio
ID : 2
Format : AAC
Format/Info : Advanced Audio Codec
Format profile : LC
Codec ID : 40
Duration : 3 min 0 s
Bit rate mode : Constant
Bit rate : 96.0 kb/s
Channel(s) : 1 channel
Channel positions : Front: C
Sampling rate : 32.0 kHz
Frame rate : 31.250 FPS (1024 SPF)
Compression mode : Lossy
Stream size : 2.07 MiB (0%)
Language : English
Encoded date : UTC 2018-07-26 07:38:56
Tagged date : UTC 2018-07-26 07:38:56

Вечерняя съемка,дождь.

К сожалению пока у меня нет ночного видео с регистратора, темнеет еще поздно и я никуда пока не ездил ночью, но как только появится выложу на канале. Тут извините.

Так как youtube ооочень портит видео, то в конце ссылки на оригиналы видео.

Скажу честно ожидал немного большего, в 4К картинка не особо понравилась,очень резкая что-ли, в 1080*60 как-то интересней выглядит. Все-таки для полноценного 4К видео надо более качественную матрицу и оптику. В целом регистратор снимает довольно хорошо, номера машин видно как во встречном потоке так и впереди едущих. GPS стартует быстро, трек пишет, выводит скорость на видео и координаты. В плюсы можно записать wifi и софт для телефона, реально удобнее просмотреть ролик на экране телефона , чем на регистраторе. В минусы запишем не совсем честный 4К и его качество. Микрофон кстати пишет нормально, не фонит. В общем покупать или нет это решать Вам, а я просто высказал свое мнение. Всем спасибо за прочтение , до новых встреч.

Мануал скачать здесь.
Вечернее видео .
Дневное видео .

Источник



Видеорегистратор AZDOME GS63H: год на стекле

Идея написать обзоры с опозданием возникла у меня неслучайно. Не секрет, что современные гаджеты недолговечны, да и красивые заявления производителей, далеко не всегда правдивы. Поэтому для меня, как для покупателя, не так важны описание характеристик, демонстрация возможностей и скоротечные выводы. Куда интереснее узнать, что думают о том или ином гаджете те, кто использует его долгое время? Интересно посмотреть, что произошло с устройством спустя время? начал ли он глючит и зависать? И вообще, стоит ли они покупать такую же модель или лучше обратить внимание на что-то другое?

Видеорегистратор AZDOME GS63H, о котором я расскажу в этом обзоре, катается со мной уже почти год. Несмотря на столь почтенный возраст, этот видеорегистратор актуален по сей день. По сравнению с прошлым годом он не подешевел и остаётся очень востребован среди всех, кто выбирает себе видеорегистратор с поддержкой GPS и Wi-Fi, который может писать 60 кадров в секунду в FullHD разрешении с высоким динамическим диапазоном, с хорошим качеством съёмки ночью и при движении на высокой скорости, к которому можно подключить вторую камеру.

Обзор видеорегистратора AZDOME GS63H

До появления AZDOME GS63H, такими, а точнее говоря, похожими возможностями обладали лишь очень дорогие модели видеорегистраторов (дороже 10 тысяч. рублей). Всё изменилось после выхода чипсета Novatek NTK 96660, изменившего представление о возможностях бюджетных видеорегистраторов.

Свой AZDOME GS63H я купил в официальном магазине Azdome на Aliexpress с бесплатной доставкой из России. Он обошёлся мне дешевле 4 тыс. рублей.

Обзор видеорегистратора AZDOME GS63H

Сегодня в официальном магазине Azdome цена практически не изменилась. За версию без дополнительной камеры просят чуть больше 4 тыс. рублей. Версия с дополнительной камерой обойдётся дешевле 4700 рублей.

Обзор видеорегистратора AZDOME GS63H

Замечу, что платформа AZDOME GS63H используется в ряде видеорегистраторов других производителей. Согласно данным Яндекс.Маркет, самый доступный аналог CARCAM М5, за который просят 4990 рублей. Самый дорогой Roadgid CityGo с дополнительной камерой ー 7450 рублей.

Если решите заказывать AZDOME GS63H в официальном магазине Azdome, обратите внимание на два момента. Во-первых, бесплатная доставки из России заняла всего четыре дня обычной почтой. Во-вторых, в заказ можно добавить карту памяти, объёмом 32 ГБ, но она обойдётся почти в 900 рублей. На мой взгляд, дороговато. Поэтому заказал карту отдельно, заплатив чуть больше 200 рублей за 32 ГБ 10 класс. Кстати тоже с доставкой из России. Отлично работает по сей день.

Обзор видеорегистратора AZDOME GS63H

Первое впечатление.

Моё знакомство с AZDOME GS63H началось с комплекта, в который входит набор крючков для крепления USB кабеля под потолком, адаптер «в прикуриватель» с двумя USB портами и максимальным выходным током 3.1А, компактный держатель на стекло с удобным фиксатором присоски и возможностью поворота на 360°, длинный кабель (3.5 метра) с Г-образным USB портом, руководство пользователя, какая-то карточка и, собственно, сам видеорегистратор, который оказался даже меньше, чем казалось по фотографиям.

Обзор видеорегистратора AZDOME GS63H

Дизайн AZDOME GS63H строг и лаконичен. Все предельно просто, но при этом каждая мелочь хорошо продумана. Корпус выполнен из качественного пластика с большим числом вентиляционных отверстий, обеспечивающих эффективный отвод тепла. Обратите внимание за год использования, пластик не потерял цвет, не поцарапался, кнопки не расшатались и на них не появилось следов от частого использования. Правда, использовал я их крайне редко.

Панель управления расположена непосредственно под экраном. В отличие от видеорегистраторов, у которых кнопки расположены на боковых гранях, такая панель управления интуитивно понятна. Ты не путаешься в кнопках и не вспоминаешь, где расположена нужная тебе кнопка.

Обзор видеорегистратора AZDOME GS63H

Действие кнопок зависит от выбранного режима работы. Некоторые выполняют несколько функций. Например, кнопка с восклицательным знаком позволяет быстро защитить текущий фрагмент записи от удаления, включить режим парковки или Wi-Fi.

Экран довольно большой и яркий. Он имеет размер 2.4″. Здесь используется TN — матрица со свойственным ей ограничением угла обзора, но, благодаря правильной ориентации экрана, заметить ограничение угла можно только, если смотреть на экран под неестественно острым углом. В обычных условиях изображение на экране прекрасно видно с любого ракурса.

Обзор видеорегистратора AZDOME GS63H

Ещё одна важная деталь в дизайне ー продуманное размещение разъёмов. В частности, производитель разместил гнездо AV для дополнительной камеры на верхней грани корпуса, обеспечив очень простое и незаметное подключение кабеля второй камеры, который обычно прячут под обшивкой потолка. Тоже касается и разъёма MiniUSB для питания, который расположен сверху на боковой грани и ориентирован таким образом, чтобы мы не перекручивали USB кабель, идущий из-под потолка.

Читайте также:  Предостережения для владельцев собак

Обзор видеорегистратора AZDOME GS63H

Помимо разъёмов для подключения дополнительной камеры и питания, видеорегистратор оборудован портом MiniHDMI для прямого подключения к ТВ и слотом для карты памяти MicroSD. Можно использовать карты, объёмом до 64 ГБ. Рекомендуется использовать 10 класс.

Обзор видеорегистратора AZDOME GS63H

Очень понравилось размещение кнопки включения отдельно от основной панели управления. Это исключает её случайное нажатие в случае, когда в дороге возникает необходимость быстро нажать какую-нибудь кнопку на панели управления.

Встроенная GPS антенна довольно миниатюрна и расположена так, что не увеличивает габариты видеорегистратора (73.4 x 63.7 x 31.6 мм), не мешает обзору и обеспечивает лучшее качество приёма сигналов со спутников.

В целом конструкция видеорегистратора и качество производства вызывает только положительные эмоции. Ничего не люфтит и не шатается, все части корпуса идеально подогнаны друг к другу, видеорегистратор прочно держиться на держателе. Доступ ко всем кнопкам и разъёмам очень удобный. Обзору не мешает. Что не нравится? Даже не знаю, что сказать по этому поводу. Мне нравится всё, даже дизайн, который кто-то из знакомых посчитал устаревшим. Для меня он максимально удобен и практичен.

Про оптику.

Начинка включает три ключевых элемента, которые, собственно, и позволили построить относительно недорогой, но при этом мощный видеорегистратор, хорошо снимающий в различных условиях освещённости.

Прежде всего, хочу обратить ваше внимание на многослойную линзу, изготовленную не из пластика, а из оптического стекла, благодаря чему, она не помутнела спустя год активного использования видеорегистратора.

Обзор видеорегистратора AZDOME GS63H

Линза имеет угол обзора 170°, что позволяет отлично видеть всю ширину многополосной дороги и объекты, движущиеся практически параллельно вам. Точнее говоря, на треть корпуса впереди вас. При этом линза минимизирует возможные оптические искажения. Важно отметить и диафрагму f1.8 благодаря чему видеорегистратор имеет большую глубину резкости.

Обзор видеорегистратора AZDOME GS63H

Про начинку…

Одной из главных причин покупки AZDOME GS63H является его начинка, в основе которой лежит связка четырёх мегапиксельного CMOS сенсора OV4689 и чипсета Novatek NTK 96660.

OV4689 ー один из лучших сенсоров для съёмки в условиях низкой освещённости. На эту тему много спорят. Кто-то утверждает, что сенсоры Sony IMX лучше, кто-то доказывает обратное. Я же считаю, что по соотношению цена/качество, OV4689 реально лучший сенсор для автомобильного видеорегистратора. Он представляет собой ⅓» матрицу с соотношением сторон 16:9 и физическим разрешением 2688*1520 пикселей (4МП). Отличительная черта этого сенсора заключается в высокой скорости передачи данных (до 180 fps в HD разрешении), а также в использовании технологии Omni BSI-2, которая обеспечивает высокую чувствительность пикселя (его размер 2*2 мкм) при слабой освещённости, высокий динамический диапазон и минимизацию артефактов изображения при съёмке в движении. Чипсет Novatek NTK 96660 является удачной оптимизацией чипсетов предыдущего поколения. Разработчики несколько уменьшили рабочую частоту, что позволило без ущерба производительности сделать его более холодным и энергоэффективным. Чипсет легко справляется с аппаратным кодированием видео в FullHD, где способен писать 60 кадров в секунду, применять при этом многочисленные алгоритмы обработки WDR и HDR, исключающие появление артефактов, свойственных видео в кодеке H.264, снятого в движении. При этом, параллельно процессор поддерживает работу с внешними GPS и Wi-Fi модулями.

Обновлять прошивку или нет?

Сразу скажу, что особой необходимости в обновлении нет. Видеорегистратор отлично проработал у меня на базовой прошивке весь год. Обновился я, скорее, для галочки и существенных изменений я не почувствовал.

Обзор видеорегистратора AZDOME GS63H

Скачать свежую прошивку можно с официального сайта производителя. Для обновления необходимо записать bin файл в корень карты памяти, установить её в видеорегистратор и подключить внешнее питания. Процесс обновления сопровождается миганием индикатора рядом с экраном и занимает меньше минуты. После перепрошивки удаляем bin файл с карты памяти, иначе видеорегистратор будет прошиваться при каждом включении питания.

Что умеет?

Знакомство с реальными возможностями AZDOME GS63H начну с меню. На удивление оно оказалось очень простым и понятным. Включает всего две закладки. Первая включает параметры выбранного режима работы, а вторая общие параметры.

Меню общих параметров позволяет установить текущие время и дату, выбрать временную зону для корректного отображения времени со спутников и произвести, если необходимо, форматирование карты памяти. Здесь же можно изменить время автоматического выключения видеорегистратора, время выключения подсветки и заставки часов, частоту внешнего освещения (для съёмки в помещении), добавить номер автомобиля для штампа. Кроме этого, сюда включена функция включения Wi-Fi, но использовать её из меню неудобно. Проще нажать кнопку с восклицательным знаком.

Обзор видеорегистратора AZDOME GS63H

Меню в режиме видео позволяет выбрать режим постоянной или циклической (3,5 или 10 минут) записи, изменить чувствительность G-сенсора, настроить детектор движения, включить или выключить запись звука, штамп времени, скорости и координат, включить контроль парковки, изменить значение компенсации экспозиции.

Обзор видеорегистратора AZDOME GS63H

В новой версии прошивки появился режим записи таймлапс видео, ручное включение и выключения режима широкого динамического диапазона (WDR), вывод полной GPS информации и заставка точного времени, полученного со спутников.

Обзор видеорегистратора AZDOME GS63H

Помимо добавления информации о скорости и координатах в штамп, данные со спутника добавляются в сам видеофайл и могут быть проиграны в приложении AZDOME Player, доступным для Windows и OS X.

Приложение позволяет смотреть видео параллельно с треком на карте, точным местоположением автомобиля, мгновенной скоростью и направлением движения.

Про качество видео.

Несмотря на то что на корпусе видеорегистратора красуется логотип 4K, я не могу отнести AZDOME GS63H к UltraHD видеорегистраторам. Ни CMOS сенсор, ни чипсет не поддерживают физическое разрешение 4K. Производитель использует интерполяцию разрешения 2688×1520 до 2880×2160 пикселей, что, собственно, тоже не является 4K, но из-за того, что число строк соответствует 4K (2160p), производитель решил приравнять его к UltraHD. В общем, такой странный и хитрый маркетинг, нацеленный, прежде всего на тех, кто не хочет разбираться в деталях. Но суть не в этом. Куда важнее обратить внимание на то, что в 4K видеорегистратор пишет всего 24 кадра в секунду. Я был уверен, что этого явно недостаточно для съёмки в движении. Каково же было моё удивление, когда на стоп-кадре мне удалось разглядеть такие детали, как номер автомобиля, двигающегося в соседней полосе со скоростью заметно выше моей.

Не помешали ни низкая скорость кадров, ни зернистость, которая становится заметна при увеличении фрагмента изображения. Более того, мне удалось разглядеть номер в тёмное время суток. Так, что режим 4K вполне достоин внимание, но нужно учесть, что в этом разрешении соотношение сторон отличается от привычного 16:9. VLC плеер понимает его и отображает корректно, а вот если смотреть на экране видеорегистратора или на телевизоре, то увидите растянутую картинку.

В своей практике я использую FullHD разрешение (60 кадров в секунду). На мой взгляд это оптимальное значение разрешение и скорости записи, позволяющее во всех деталях фиксировать ситуацию на дороге. Однако, если хотите фиксировать каждое мгновение, рекомендую писать видео в HD разрешении со скоростью 120 кадров в секунду. В этом разрешении мне удалось зафиксировать на стоп-кадре номера мотоцикла, движущегося со скоростью, явно выше 150 км/ч.

Как AZDOME GS63H справляется со съёмкой ночью? На мой взгляд, даже очень не плохо, позволяя получить очень достойную картинку, на которой можно идентифицировать локацию, цвет и марку автомобилей, ситуацию на дороге. Однако, распознать детали в темноте удаётся не всегда. Например, номера автомобилей, часто засвечивается фарами автомобилей или собственной подсветкой,

По качеству записи звука, AZDOME GS63H не вызвал у меня замечаний. Чувствительности микрофона достаточно для того, чтобы писать качественный звук с нескольких метров, в том числе и на шумной улице.

Про вторую камеру…

Про вторую камеру ничего сказать не могу. Я её не использую. Знаю лишь то, что при одновременной записи двух потоков видео, ограничивается разрешение и скорость для каждого потока. Лучше установить второй видеорегистратор.

Про фото.

Режим фото я никогда не использую, тем не менее стоит отметить, что он поддерживает разрешение до 12 МП (всё, что выше 4 МП с интерполяцией), включает режимы одиночной и серийной съёмки, съёмку с интервалом, а также позволяет пользователю настроить различные параметры.

Обзор видеорегистратора AZDOME GS63H

Для демонстрации возможностей я сделал ряд кадров в нескольких разрешениях без изменения параметров съёмки.

Обзор видеорегистратора AZDOME GS63H

12 МП (4032х3024)

Обзор видеорегистратора AZDOME GS63H

Обзор видеорегистратора AZDOME GS63H

Про Wi-Fi…

Поддержка Wi-Fi позволяет удалённо управлять видеорегистратором, используя мобильное приложение LuckyCam. С его помощью вы можете не только управлять процессом съёмки, выбирая нужное разрешение и режим записи, изменить любые параметры камеры, а также получить доступ ко всем записям и фото, хранящимся в памяти видеорегистратора.

Обзор видеорегистратора AZDOME GS63H

Про батарейку…

AZDOME GS63H оборудован аккумулятором, ёмкостью 250 мАч. Этого, конечно, недостаточно для длительного питания устройства, оборудованного мощным процессором и GPS. По моим наблюдениям, одного заряда хватает примерно на 10 минут. В повседневной жизни аккумулятор необходим, например, для работы режима парковки, который, напомню, в случае удара по машине, включает видеорегистратор, записывает фрагмент видео, после чего выключает устройство. При этом внешнего питания (зажигание) ему не требуется. Вот для этой задачи 10 минут вполне достаточно.

Заключение.

Не буду писать долгих заключений и ещё раз рассказывать о том, что мне нравится в AZDOME GS63H. Скажу лишь, что чем дольше я им пользуюсь, тем яснее понимаю, что год назад сделал правильный выбор. За те 4 тыс. рублей, которые я заплатил за него, вряд ли нашел бы модель, которая могла похвастаться столь высоким качеством и богатым функционалом, который остаётся актуальным по сей день. И если сегодня возникла бы необходимость в покупке видеорегистратора, то, скорее всего, выбрал такую же модель. Во всяком случае пока я не вижу причин выбрать что-то другое.

Источник

Azdome GS63H, типа 4К авторегистратор.

  • Цена: 74.99$ (promo 67.47$)
  • Перейти в магазин

Здравствуйте друзья. Сегодня обзор пока что лучшего, из тех что побывали у меня, автомобильного регистратора GS63H от компании AZDOME.

Приехала посылка ко мне пока я был на отдыхе в Карпатах и пылилась неделю на почте, пока не забрали родные. Запаковано в обычный пакет и коробочке немного досталось, но благодаря толстым стенкам ничего не пострадало. На передней части коробки рисунок регистратора, название модели и ниже логотип бренда Azdome.

На задней части модель, адрес и серийный номер устройства. Лаконично и просто.

Открываем крышку и видим в поролоновом ложементе сам регистратор и коробочку с аксессуарами.

Также под ними обнаружился очень подробный мануал, с русским языком и симпатичная открытка, на обратной стороне которой контакты фирмы в соцсетях.

В коробочке с аксессуарами у нас находится:
• Клипсы на клейкой основе для крепления кабеля
• Присоска на лобовое стекло
• Зарядное в прикуриватель
• Угловой кабель USB-miniUSB
• Пластиковая стека



Особенности и характеристики:
• Процессор Novatek NT96660 (встроенный 2 ГБ DDRIII)
• Матрица/сенсор OmniVision OV4689, 1/3″ CMOS
• Разрешение записи: 2880*2160P 24fps, 1920*1080P@60fps, 1920*1080@30fps, 1280*720@120fps, 1280*720@60fps, 1280*720@30fps,
• FHD@30fps + VGA@30fps (двухканальный режим)
• Объектив: светосила F/1.8,
• Угол обзора 150° (диагональ), 107° (по горизонту)
• Кодек сжатия видео H.264
• Дисплей 2.4″ ЖК
• Поддержка HDMI
• G-Сенсор с настройкой чувствительности (три уровня)
• Циклическая запись: 3 / 5 / 10 мин
• Функция обнаружения движения
• Функция мониторинга парковки (по G-сенсору)
• Встроенный Wi-Fi
• Встроенный модуль GPS
• Автоматическое включение/выключение при подаче питания
• Поддержка карт памяти до 64 ГБ
• Аккумулятор встроенный Li-ion 250 mAh (35*28*30)
• Размеры: 74*64*32 мм

Как видим, регистратор основан на одном из топовых чипсетах от Novatek, а именно на NT96660. Этот чипсет позволяет писать видео в 4К в разрешении 3840*2160@24fps и востребован в регистраторах и экшн-камерах. Единственное чтобы получить честное 4К видео, должен быть установлен минимум 8Мп сенсор, а здесь только 4Мп OV4689. Поэтому в характеристиках и написано недо-4К разрешение 2880*2160@24fps. Но качество видео посмотрим в конце.

Вернемся к внешнему виду устройства. Регистратор небольшой всего лишь 7 на 6 см, и в принципе будет не очень заметен в машине, хотя надо не забывать про присоску.

На передней части устройства расположен объектив и отсутствуют ненужные диоды подсветки, все равно от них никакого толку. Логотип, надпись 4К и значок wifi. В верхней части есть наплыв, в котором расположен GPS приемник.

Читайте также:  Бифидумбактерин детям до года инструкция

На задней части регистратора расположен 2.4 дюймовый дисплей, а под ним кнопки навигации и управления, о функциях напишу ниже.

На одной грани устройства расположена кнопка включения устройства, также она выключает дисплей во время работы, и слот для microSD карты.

На противоположной стороне разместился miniUSB разъем для питания устройства, а также разъем miniHDMI, для подключения к телевизору например.

На верхней грани есть опять же наклейка с серийником и AV-in для подключения камеры заднего вида.

Снизу расположилась кнопочка сброса и отверстие микрофона. Также в большом количестве на корпусе расположены вентиляционные отверстия.

Функции кнопок:


Основных кнопок управления пять, все находятся под дисплеем. Управление удобное, со звуковым сопровождением нажатия.
1. Вход в Меню Video, двойное нажатие — переход в системное меню Setup
2. Передвижеие по Меню Вверх/Up
4. Передвижеие по Меню Вниз/Down
5. Подтверждение выбора настроек Меню/OK. Старт/Стоп записи. Переключение режимов Видео/Фото/Просмотр
Кнопка 3 в режиме записи включает защиту файла от перезаписи/SOS. В режиме просмотра короткое нажатие включает Wi-Fi, длительное нажатие — режим Парковки.
Кроме того кнопками Вверх/Вниз в режиме просмотра регулируется Увеличение масштаба изображения/Zoom, максимальное значение — 2,9.

Как видно из описания, в регистраторе присутствует wifi модуль и имеется приложение для работы с ним. Приложение скачивается по QR коду с плеймаркета и называется LuckyCam. Подключение очень простое, активируем wifi на регистраторе, в настройках телефона или планшета находим название сети GS63H и подключаемся. Пароль по умолчанию 12345678. Все подсказки есть в самой программе. В дальнейшем программа подключается к регистратору автоматически.

Также в устройстве имеется модуль GPS, то есть можно будет посмотреть весь свой маршрут. Для этого скачиваем по этой ссылке Dash Cam GPS player и пользуемся. Если программа не подгружает Гугл карты, запускаем ее от имени Администратора.

Меню у регистратора довольно обширное, делится на два раздела Video и Setup. В первом находятся различные настройки связанные с фото и видеосъемкой, во втором общие настройки регистратора. Ниже приведу фото экранов меню.





Теперь попробуем посмотреть, что все-таки внутри и не обманул ли нас производитель. К сожалению я так и не смог разобрать полностью регистратор, боялся порвать шлейф экрана. И боюсь все равно чип бы мы не увидели, так как он закрыт металлической крышкой. Но частично разобрал, внутри много металлической фольги, медные пластинки, видать чип при работе достаточно греется и сделали все для его охлаждения.






Так как аккумулятор там небольшой, рассчитан всего на 7 минут автономной работы, то много с ним не побегаешь.
Ну и главное, собственно в регистраторе, это пример видеосъемки. Регистратор записывает файлы на карту памяти в папку MOVIE, которая находится в общей папке NOVATEK. Нестираемые файлы записываются в отдельную папку RO. Нумерация удобная, все файлы нумеруются подряд, если записывается защищенный файл — он получает следующий порядковый номер, только заносится в папку RO, отыскать файлы легко. Вид имени файла: 2017_1022_165750_001 (год_дата_время начала записи файла ччммсс_номер файла).
При подключении к компьютеру предлагается на выбор 2 варианта, съемный диск или вебкамера.

Дневная съемка видео «4К».

General
Complete name: H:\record\2018_0726_073558_011.MP4
Format: MPEG-4
Format profile: Base Media / Version 2
Codec ID: mp42 (isom/avc1/mp42)
File size: 540 MiB
Duration: 3 min 1 s
Overall bit rate: 25.0 Mb/s
Movie_More: DEMO1
Encoded date: UTC 2018-07-26 07:38:56
Tagged date: UTC 2018-07-26 07:38:56
Origin: NOVATEK

Video
ID: 1
Format: AVC
Format/Info: Advanced Video Codec
Format profile: High@L5.1
Format settings, CABAC: Yes
Format settings, RefFrames: 1 frame
Format settings, GOP: M=1, N=12
Codec ID: avc1
Codec ID/Info: Advanced Video Coding
Duration: 3 min 1 s
Bit rate: 24.6 Mb/s
Width: 2 880 pixels
Height: 2 160 pixels
Display aspect ratio: 16:9
Frame rate mode: Constant
Frame rate: 24.000 FPS
Color space: YUV
Chroma subsampling: 4:2:0
Bit depth: 8 bits
Scan type: Progressive
Bits/(Pixel*Frame): 0.165
Stream size: 530 MiB (98%)
Language: English
Encoded date: UTC 2018-07-26 07:38:56
Tagged date: UTC 2018-07-26 07:38:56

Audio
ID: 2
Format: AAC
Format/Info: Advanced Audio Codec
Format profile: LC
Codec ID: 40
Duration: 3 min 0 s
Bit rate mode: Constant
Bit rate: 96.0 kb/s
Channel(s): 1 channel
Channel positions: Front: C
Sampling rate: 32.0 kHz
Frame rate: 31.250 FPS (1024 SPF)
Compression mode: Lossy
Stream size: 2.07 MiB (0%)
Language: English
Encoded date: UTC 2018-07-26 07:38:56
Tagged date: UTC 2018-07-26 07:38:56

К сожалению пока у меня нет ночного видео с регистратора, темнеет еще поздно и я никуда пока не ездил ночью, но как только появится выложу на канале. Тут извините.

Так как youtube ооочень портит видео, то в конце ссылки на оригиналы видео.

Скажу честно ожидал немного большего, в 4К картинка не особо понравилась, очень резкая что-ли, в 1080*60 как-то интересней выглядит. Все-таки для полноценного 4К видео надо более качественную матрицу и оптику. В целом регистратор снимает довольно хорошо, номера машин видно как во встречном потоке так и впереди едущих. GPS стартует быстро, трек пишет, выводит скорость на видео и координаты. В плюсы можно записать wifi и софт для телефона, реально удобнее просмотреть ролик на экране телефона, чем на регистраторе. В минусы запишем не совсем честный 4К и его качество. Микрофон кстати пишет нормально, не фонит. В общем покупать или нет это решать Вам, а я просто высказал свое мнение. Всем спасибо за прочтение, до новых встреч.

Мануал скачать здесь.
Вечернее видео.
Дневное видео.

Товар предоставлен для написания обзора магазином. Обзор опубликован в соответствии с п.18 Правил сайта.

Источник

Azdome GS63H, типа 4К авторегистратор.

  • Цена: 74.99$ (promo 67.47$)
  • Перейти в магазин

Здравствуйте друзья. Сегодня обзор пока что лучшего, из тех что побывали у меня, автомобильного регистратора GS63H от компании AZDOME.

Приехала посылка ко мне пока я был на отдыхе в Карпатах и пылилась неделю на почте, пока не забрали родные. Запаковано в обычный пакет и коробочке немного досталось, но благодаря толстым стенкам ничего не пострадало. На передней части коробки рисунок регистратора, название модели и ниже логотип бренда Azdome.

На задней части модель, адрес и серийный номер устройства. Лаконично и просто.

Открываем крышку и видим в поролоновом ложементе сам регистратор и коробочку с аксессуарами.

Также под ними обнаружился очень подробный мануал, с русским языком и симпатичная открытка, на обратной стороне которой контакты фирмы в соцсетях.

В коробочке с аксессуарами у нас находится:
• Клипсы на клейкой основе для крепления кабеля
• Присоска на лобовое стекло
• Зарядное в прикуриватель
• Угловой кабель USB-miniUSB
• Пластиковая стека



Особенности и характеристики:
• Процессор Novatek NT96660 (встроенный 2 ГБ DDRIII)
• Матрица/сенсор OmniVision OV4689, 1/3″ CMOS
• Разрешение записи: 2880*2160P 24fps, 1920*[email protected], 1920*[email protected], 1280*[email protected], 1280*[email protected], 1280*[email protected],
• [email protected] + [email protected] (двухканальный режим)
• Объектив: светосила F/1.8,
• Угол обзора 150° (диагональ), 107° (по горизонту)
• Кодек сжатия видео H.264
• Дисплей 2.4″ ЖК
• Поддержка HDMI
• G-Сенсор с настройкой чувствительности (три уровня)
• Циклическая запись: 3 / 5 / 10 мин
• Функция обнаружения движения
• Функция мониторинга парковки (по G-сенсору)
• Встроенный Wi-Fi
• Встроенный модуль GPS
• Автоматическое включение/выключение при подаче питания
• Поддержка карт памяти до 64 ГБ
• Аккумулятор встроенный Li-ion 250 mAh (35*28*30)
• Размеры: 74*64*32 мм

Как видим, регистратор основан на одном из топовых чипсетах от Novatek, а именно на NT96660. Этот чипсет позволяет писать видео в 4К в разрешении 3840*[email protected] и востребован в регистраторах и экшн-камерах. Единственное чтобы получить честное 4К видео, должен быть установлен минимум 8Мп сенсор, а здесь только 4Мп OV4689. Поэтому в характеристиках и написано недо-4К разрешение 2880*[email protected] Но качество видео посмотрим в конце.

Вернемся к внешнему виду устройства. Регистратор небольшой всего лишь 7 на 6 см, и в принципе будет не очень заметен в машине, хотя надо не забывать про присоску.

На передней части устройства расположен объектив и отсутствуют ненужные диоды подсветки, все равно от них никакого толку. Логотип, надпись 4К и значок wifi. В верхней части есть наплыв, в котором расположен GPS приемник.

На задней части регистратора расположен 2.4 дюймовый дисплей, а под ним кнопки навигации и управления, о функциях напишу ниже.

На одной грани устройства расположена кнопка включения устройства, также она выключает дисплей во время работы, и слот для microSD карты.

На противоположной стороне разместился miniUSB разъем для питания устройства, а также разъем miniHDMI, для подключения к телевизору например.

На верхней грани есть опять же наклейка с серийником и AV-in для подключения камеры заднего вида.

Снизу расположилась кнопочка сброса и отверстие микрофона. Также в большом количестве на корпусе расположены вентиляционные отверстия.

Функции кнопок:


Основных кнопок управления пять, все находятся под дисплеем. Управление удобное, со звуковым сопровождением нажатия.
1. Вход в Меню Video, двойное нажатие — переход в системное меню Setup
2. Передвижеие по Меню Вверх/Up
4. Передвижеие по Меню Вниз/Down
5. Подтверждение выбора настроек Меню/OK. Старт/Стоп записи. Переключение режимов Видео/Фото/Просмотр
Кнопка 3 в режиме записи включает защиту файла от перезаписи/SOS. В режиме просмотра короткое нажатие включает Wi-Fi, длительное нажатие — режим Парковки.
Кроме того кнопками Вверх/Вниз в режиме просмотра регулируется Увеличение масштаба изображения/Zoom, максимальное значение — 2,9.

Как видно из описания, в регистраторе присутствует wifi модуль и имеется приложение для работы с ним. Приложение скачивается по QR коду с плеймаркета и называется LuckyCam. Подключение очень простое, активируем wifi на регистраторе, в настройках телефона или планшета находим название сети GS63H и подключаемся. Пароль по умолчанию 12345678. Все подсказки есть в самой программе. В дальнейшем программа подключается к регистратору автоматически.

Также в устройстве имеется модуль GPS, то есть можно будет посмотреть весь свой маршрут. Для этого скачиваем по этой ссылке Dash Cam GPS player и пользуемся. Если программа не подгружает Гугл карты, запускаем ее от имени Администратора.

Меню у регистратора довольно обширное, делится на два раздела Video и Setup. В первом находятся различные настройки связанные с фото и видеосъемкой, во втором общие настройки регистратора. Ниже приведу фото экранов меню.





Теперь попробуем посмотреть, что все-таки внутри и не обманул ли нас производитель. К сожалению я так и не смог разобрать полностью регистратор, боялся порвать шлейф экрана. И боюсь все равно чип бы мы не увидели, так как он закрыт металлической крышкой. Но частично разобрал, внутри много металлической фольги, медные пластинки, видать чип при работе достаточно греется и сделали все для его охлаждения.






Так как аккумулятор там небольшой, рассчитан всего на 7 минут автономной работы, то много с ним не побегаешь.
Ну и главное, собственно в регистраторе, это пример видеосъемки. Регистратор записывает файлы на карту памяти в папку MOVIE, которая находится в общей папке NOVATEK. Нестираемые файлы записываются в отдельную папку RO. Нумерация удобная, все файлы нумеруются подряд, если записывается защищенный файл — он получает следующий порядковый номер, только заносится в папку RO, отыскать файлы легко. Вид имени файла: 2017_1022_165750_001 (год_дата_время начала записи файла ччммсс_номер файла).
При подключении к компьютеру предлагается на выбор 2 варианта, съемный диск или вебкамера.

Дневная съемка видео «4К».

General
Complete name: H:\record\2018_0726_073558_011.MP4
Format: MPEG-4
Format profile: Base Media / Version 2
Codec ID: mp42 (isom/avc1/mp42)
File size: 540 MiB
Duration: 3 min 1 s
Overall bit rate: 25.0 Mb/s
Movie_More: DEMO1
Encoded date: UTC 2018-07-26 07:38:56
Tagged date: UTC 2018-07-26 07:38:56
Origin: NOVATEK

Video
ID: 1
Format: AVC
Format/Info: Advanced Video Codec
Format profile: [email protected]
Format settings, CABAC: Yes
Format settings, RefFrames: 1 frame
Format settings, GOP: M=1, N=12
Codec ID: avc1
Codec ID/Info: Advanced Video Coding
Duration: 3 min 1 s
Bit rate: 24.6 Mb/s
Width: 2 880 pixels
Height: 2 160 pixels
Display aspect ratio: 16:9
Frame rate mode: Constant
Frame rate: 24.000 FPS
Color space: YUV
Chroma subsampling: 4:2:0
Bit depth: 8 bits
Scan type: Progressive
Bits/(Pixel*Frame): 0.165
Stream size: 530 MiB (98%)
Language: English
Encoded date: UTC 2018-07-26 07:38:56
Tagged date: UTC 2018-07-26 07:38:56

Читайте также:  Работники на неполной ставке как оформить без проблем

Audio
ID: 2
Format: AAC
Format/Info: Advanced Audio Codec
Format profile: LC
Codec ID: 40
Duration: 3 min 0 s
Bit rate mode: Constant
Bit rate: 96.0 kb/s
Channel(s): 1 channel
Channel positions: Front: C
Sampling rate: 32.0 kHz
Frame rate: 31.250 FPS (1024 SPF)
Compression mode: Lossy
Stream size: 2.07 MiB (0%)
Language: English
Encoded date: UTC 2018-07-26 07:38:56
Tagged date: UTC 2018-07-26 07:38:56

К сожалению пока у меня нет ночного видео с регистратора, темнеет еще поздно и я никуда пока не ездил ночью, но как только появится выложу на канале. Тут извините.

Так как youtube ооочень портит видео, то в конце ссылки на оригиналы видео.

Скажу честно ожидал немного большего, в 4К картинка не особо понравилась, очень резкая что-ли, в 1080*60 как-то интересней выглядит. Все-таки для полноценного 4К видео надо более качественную матрицу и оптику. В целом регистратор снимает довольно хорошо, номера машин видно как во встречном потоке так и впереди едущих. GPS стартует быстро, трек пишет, выводит скорость на видео и координаты. В плюсы можно записать wifi и софт для телефона, реально удобнее просмотреть ролик на экране телефона, чем на регистраторе. В минусы запишем не совсем честный 4К и его качество. Микрофон кстати пишет нормально, не фонит. В общем покупать или нет это решать Вам, а я просто высказал свое мнение. Всем спасибо за прочтение, до новых встреч.

Мануал скачать здесь.
Вечернее видео.
Дневное видео.

Товар предоставлен для написания обзора магазином. Обзор опубликован в соответствии с п.18 Правил сайта.

Источник

Обзор автомобильного видеорегистратора DEXP GS63I

Обзор автомобильного видеорегистратора DEXP GS63I

Аватар пользователя

В очередной раз приветствую читателей моих заметок. Сегодня я собираюсь рассказать про очередной видеорегистратор, коих через мои руки прошло уже немало. Так уж совпало, что, в принципе, большинство этих регистраторов относилось к примерно одинаковой, средней, ценовой категории. При этом сложно было не обратить внимание на то, что год от года сохраняется тенденция к улучшению характеристик устройств при сохранении принадлежности к ценовому сегменту. Ситуация вполне понятная для тех, кто привык иметь дело с компьютерным «железом», но вот регистраторы одно время долго топтались на месте, в частности, по разрешению картинки – выбор был по большому счету прост – либо брать нормальный регистратор с FullHD, либо сэкономить и взять нечто с мутной HD (в лучшем случае) картинкой. Теперь же разнообразие намного шире. Развились дополнительные опции, наращивается разрешение. Банальное FullHD уже в лучшем случае сойдет за «ну ничего так, покатит». И здесь я хочу уже с нетерпением представить героя сегодняшнего обзора – видеорегистратор DEXP GS63I. Чем же он так примечателен? А вот именно разрешением и примечателен. Впрочем, не только им. Но начнем по порядку.

Технические характеристики

Чипсет Novatek NTK96660 Матрица OmniVision OV4689 Максимальное разрешение видеозаписи 2880×2160 (3K) Частота кадров при максимальном разрешении 24 к/с Угол обзора объектива 150° Поворот корпуса есть Диагональ дисплея 2.4″ Разрешение дисплея 320×240 Емкость встроенного аккумулятора 250 мА/ч Разъемы на корпусе miniUSB Тип крепления крепление-присоска Датчик движения нет G-сенсор есть GPS-модуль есть Ширина 63 мм Высота 43 мм Глубина 75 мм

Как я уже успел проговориться, прежде всего обращает на себя внимание значение разрешения, какие-то сумасшедшие 2880х2160, это целых 6 Мегапикселей. Видимо не в силах взять на себя обязательств по соответствию стандартам 2К или 4К здесь такое разрешение называется SuperHD. Правда, внимательный читатель заметит, что с таким разрешением соотношение сторон кадра будет 4:3, не очень-то привычно. Безусловным плюсом является и наличие модуля GPS, позволяющий не только отобразить координаты на видеокадре, но и текущую скорость. Искренне желаю, чтобы никому это не пригодилось при разборе происшествий, но… лучше пусть будет.

Диагональ экрана немалая – целых 2.4 дюйма. Вряд ли это можно считать большим плюсом – в современном регистраторе экран нужен в основном для первичных настроек, и чтобы не мешал обзору потом. Не думаю, что найдётся много желающих вдумчиво и всерьёз просматривать видеозаписи на экранчике 2.4”.

Угол обзора внушительный – 150 градусов. С таким углом обзора очень полезно иметь высокое разрешение картинки.

При более вдумчивом изучении характеристик появляется уже больше вопросов: Датчик OmniVision OV4689, судя по даташиту от производителя, снимает в разрешении 2688х1520. Нестыковочки… Но всё встает на свои места если узнать, что чип Novatek NTK96660 умеет снимать с разрешением 4К с интерполяцией. В общем где-то производитель решил схитрить. То ли маркетологи попались слишком скромные, то ли инженеры слишком наглые. Могли бы заявлять и 4К смело.

Однако не будем больше ходить вокруг, да около – обратимся непосредственно к видеорегистратору DEXP GS63I (кстати, чтобы вы знали, последняя буковка – это I, «ай», девятая буква английского алфавита, заглавная i, а вовсе не строчная L).

Упаковка и комплектация

Поставляется автомобильный видеорегистратор DEXP GS63I в небольшой картонной коробке, торцы которой вполне резонно отданы под описание достоинств и демонстрацию внешнего вида устройства. Помимо того, что мы видели в характеристиках, можно обратить внимание на «Разъём AV-IN», видимо для подключения дополнительной камеры заднего вида, а также опцию «Голосовое оповещение о радарах». Здесь же раскрываются подробности используемого кодека – это у нас h.264, не самое плохое решение, но на текущий момент уже есть получше – пора переходить на h.265! Поддержка карт памяти заявлена объёмом до 64Гб. Сдаётся мне, что при максимальном разрешении такого объёма хватит ненадолго.

Внутри коробки уложен небогатый комплект:

1. Автомобильный видеорегистратор DEXP GS63I;

2. Адаптер питания, подключаемый в прикуриватель автомобиля, с USB-розеткой;

3. Кронштейн крепления на ветровое стекло, с присоской;

4. Короткий кабель USB-MiniUSB;

5. Руководство по эксплуатации и гарантийный талон.

Вот и всё, ребята! Очень странно, конечно, что в комплекте нет камеры заднего вида, при предусмотренном для неё видеовходе. Где я буду искать эту камеру отдельно? Как я пойму, что то, что я нашел, подойдёт? Непоняяятно.

В инструкции ни слова о функции предупреждения о радарах. Это мне как-то базу радаров надо будет обновлять? А где её брать? А как её скормить видеорегистратору? Непоняяятно!

Ниже – видео распаковки и содержимое коробки.

Дизайн

Регистратор выполнен в корпусе из черного пластика, компактном настолько насколько это позволяет 2.4” экран. Основным элементом фронтальной панели является большой объектив, хотя если присмотреться, то большой лишь его корпус. Сама оптика занимает не так уж много в его объёме. Здесь же, спереди, расположена сеточка динамика. Задняя панель отдана под дисплей и кнопки навигации, кроме того тут виден статусный светодиод.

Стенка нижней грани перфорирована для лучшей вентиляции. Кнопка Reset и микрофон также расположены с этой стороны. Слева находится слот для карт памяти MicroSD и кнопка включения/выключения. Справа на корпусе расположены разъёмы MiniUSB и MiniHDMI. Верхняя часть регистратора, с характерным расширенным участком под антенну GPS, содержит разъём подключения внешней камеры AV IN.

Собран видеорегистратор аккуратно, детали корпуса плотно прилегают друг к другу, кнопки нажимаются в меру жестко, не болтаются. Ощущения от конструкции корпуса самые положительные. Единственное что непонятно – почему не сделать поменьше экран, неужели на него кто-то смотрит во время движения или просматривает записи?

Установка

Ниже – видео способа установки видеорегистратора DEXP GS63I в салоне автомобиля.

Способ крепления на присоску является одним из стандартных и, пожалуй, наиболее распространенным и интуитивно понятным. Крепление регистратора к кронштейну осуществляется путем установки в паз специального пластикового выступа. На этот выступ приклеена резиновая полоска, которая будет предотвращать самовольное сползание регистратора с кронштейна. Хорошее решение.

Кронштейн позволяет регулировать угол наклона и поворота регистратора. Угол наклона фиксируется винтом, а угол поворота никак дополнительно не фиксируется, вся надежда только на плотность прилегания деталей механизма. Будем надеяться, что не разболтается. Зато, при желании, можно быстро повернуть регистратор одной рукой.

Вообще, механизм регулировки простой, но удобный и, на удивление, компактный. В результате установки регистратор компактно (насколько это позволяют его размеры) размещается на стекле.

В работе. Дисплей и настройка

При включении сразу бросаются в глаза ужасные углы обзора экрана. При малейшем отклонении от перпендикуляра изображение искажается. При взгляде слева (с места водителя) цвета выцветшие и инвертированные. Со стороны пассажира (справа) ситуация не сильно лучше.

По краям экрана компактно размещена полезная информация:

— режим съёмки – видео или фото; — установленная длительность роликов; — настройки поправки экспозиции; — чувствительность датчика удара; — время работы/записи; — разрешение роликов; — состояние режима парковки; — состояние микрофона (вкл/выкл); — наличие карты памяти; — состояние батареи; — текущие дата и время.

Информации масса и она аккуратно размещена по краям большого экрана. При этом надписи никак не мешают.

Ниже – видео навигации по настройкам

По большому счету набор настроек стандартный, без какого-то излишнего функционала. Стоп-стоп-стоп! А где обещанное предупреждение о радарах? А нигде. Нет этого в настройках. Ни в настройках, ни, забегая вперед скажу, во время езды. Таким образом GPS нужен только для отображения координат и текущей скорости движения в видеороликах. Приятно, конечно, но хотелось бы получить обещанное. Расширенного динамического диапазона тоже нет, увы. Никто не обещал, но всё равно жаль. Зато есть фоторежим, но это слабое утешение.

Проверить в полной мере работу с внешней камерой возможности не представилось, была предпринята попытка подключить камеру от видеорегистратора QS RG52 . Попытка не увенчалась успехом. Изображение с камеры не отобразилось, подозреваю, что дело в USB-хабе, встроенном в кабель той камеры, возможно здесь нужен просто аналоговый видеосигнал… но это неточно. К сожалению, никакой информации об этом нет. Зато, когда регистратор обнаружил подключение 4-контактного джека к видеовходу, немедленно нарисовал на экран вспомогательные линии для парковки. Возможно для этого мог бы пригодиться большой экран, если бы не его ужасные углы обзора.

В работе. Видеосъёмка.

Качество видеосъёмки предлагаю оценить вместе по представленным роликам (обратите внимание, что доступны исходные файлы, по ссылке с облака). Итак, что же мы видим.





Картинка днём чёткая, с правильной цветопередачей, но при просмотре в исходном разрешении заметны артефакты картинки, излишняя зернистость. Но высокое разрешение, даже интерполированное при хороших условиях съёмки неплохо справляется с фиксацией номеров даже движущихся встречных автомобилей, на расстоянии примерно до 10-12 м. Для съёмки в движении это хороший результат.

В плохих условиях – в сумерках или ночью всё закономерно хуже. Номера можно разобрать только у близлежащих машин, причем с минимальной относительной скоростью движения и, желательно, хорошо освещенные.

Динамический диапазон не очень широкий, особенно это заметно в темноте — фары и фонари автомобилей выглядят как выгоревшие светлые пятна. В контровом свете результаты также посредственные.

На ночной съёмке становится заметно отсутствие стабилизации изображения – при езде по неровности видно дрожание картинки.

Угол обзора большой, видны автомобили, стоящие впереди в трех полосах. Это удобно и позволяет запечатлеть наиболее полно окружающую обстановку.

Микрофон отрабатывает свою задачу хорошо – записывает звуки в салоне, в роликах можно с легкостью услышать всё, что происходило. Ничего выдающегося, но для функции регистратора – более чем достаточно.

В сухом остатке главным достоинством картинки с видеорегистратора DEXP GS63I является высокое разрешение картинки при хорошем угле обзора.

При внимательном рассмотрении видеофайлов обращает на себя внимание высокий битрейт роликов (а как вы хотели?) – порядка 25 Мбит/с, 3-минутный ролик «весит» 540 Мб. Причем звук сжимается очень сильно, и это правильно. При таких раскладах карты памяти на 64 Гб хватит почти на 6 часов видеороликов. Если надо больше, то придется снижать качество.

В итоге

Автомобильный видеорегистратор DEXP GS63I обладает хорошим потенциалом, который разработчик не смог до конца раскрыть. И матрица, и процессор хороши, и GPS можно было бы по-разному использовать, да и видеовход можно было бы к делу привязать, но в прошивке реализован, по сути, базовый функционал с интерполированной картинкой.

+ Большой угол обзора + Высокое разрешение кадра (хоть и интерполяция, все равно в плюс) + удобный кронштейн + наличие GPS + качественное исполнение устройства

— ужасные углы обзора экрана — отсутствие заявленного функционала GPS — узкий динамический диапазон

Источник

Adblock
detector